#TITLE:Astraea;
#SUBTITLE:;
#ARTIST:桥本みゆき;
#TITLETRANSLIT:;
#SUBTITLETRANSLIT:;
#ARTISTTRANSLIT:;
#CREDIT:;
#BANNER:ASTRAEA-LOGO.jpg;
#BACKGROUND:ASTRAEA.jpg;
#LYRICSPATH:;
#CDTITLE:Lan.png;
#MUSIC:Astraea.mp3;
#OFFSET:-0.040;
#SAMPLESTART:100.000;
#SAMPLELENGTH:12.000;
#SELECTABLE:YES;
#BPMS:0.000=140.000;
#STOPS:;
#BGCHANGES:;
// cache tags:
#FIRSTBEAT:11.000;
#LASTBEAT:284.000;
#SONGFILENAME:Songs/Super Dancer Online/Astraea/Astraea.sm;
#HASMUSIC:1;
#HASBANNER:1;
#MUSICLENGTH:124.384;
// end cache tags

//---------------dance-single - sky----------------
#NOTES:
     dance-single:
     sky:
     Hard:
     9:
     0.750,0.771,0.788,0.145,0.092,537.000,98.000,18.000,0.000,0.000:

0000
0000
0000
0000
,
0000
0000
0000
0000
,
0000
0000
0000
0000
0000
0000
0000
0000
0000
0000
0000
0000
1000
0000
1000
0010
,
1100
0001
1010
0100
0010
0001
1010
0100
,
1000
0001
1010
0100
1000
0100
1001
0010
,
0100
0001
1010
0100
0010
0100
1001
0100
,
1000
0000
0100
0000
1010
0000
0001
0000
0010
0000
0100
0000
1010
0000
1001
0010
,
1000
1000
0110
1000
0001
0100
0011
1000
,
0001
0010
1100
0010
0001
0100
1010
0100
,
0001
1000
0101
0010
0001
0001
1010
0100
,
1000
0010
1100
0010
0100
1001
1010
1001
,
1010
0001
1100
0000
0001
1000
0101
0000
,
0100
0100
0110
0001
0010
0100
1010
0001
,
0100
0010
1001
0000
0001
0100
0011
0000
,
0001
0010
1001
0010
0100
0010
0101
1000
,
0010
1000
1010
0000
0100
0001
0101
0000
,
0001
0001
0011
0000
0010
0010
0110
0000
,
0100
0100
1100
0000
1000
1000
1001
0000
,
0100
0000
0010
0000
0101
0000
0010
0000
0001
0000
0010
0000
1100
0000
0000
0100
,
0010
0001
1010
0001
0010
0001
0110
0001
,
0100
1000
0101
1000
0010
1000
0110
1000
,
0010
0001
1010
0001
1000
0001
1010
0001
,
0010
0000
1000
0000
0110
0000
0001
0000
0100
0000
1000
0000
0101
0000
0010
1000
,
0001
1000
0011
0100
0001
0010
1001
0100
,
1000
0001
1100
0001
0100
1000
0110
0001
,
0010
0100
0011
0100
0001
0010
1001
0010
,
1000
0000
0100
0000
1001
0000
0010
0000
1000
0000
0100
0000
1010
0000
0001
0010
,
0100
0000
0110
0000
0010
0100
0010
0000
,
1000
0000
0100
0000
0010
0000
0001
0100
0001
0000
0010
0000
0100
0000
1000
0000
,
1000
0010
1100
0000
0010
0100
0011
0000
,
0001
0000
0010
0000
0100
0000
1000
0010
1000
0000
0100
0000
0010
0000
0001
0000
,
0001
0100
0011
0000
0100
0010
1001
0000
,
0100
0010
0110
0000
0010
0100
0110
0000
,
1000
0100
1010
0001
0010
0100
0011
0100
,
1000
0100
0001
0010
1001
0100
0010
0001
1000
0010
0100
0001
0010
0100
0001
0010
,
1001
0000
0000
0100
0001
0000
1001
0000
0000
0000
0000
0000
0010
0000
0100
0010
,
0100
0010
0001
0000
0010
0100
1000
0000
0010
0000
1100
0010
0001
0000
1010
0000
,
0100
1000
0010
1001
0010
0101
1000
0011
,
0100
1010
0100
0010
0001
1010
0001
0100
,
0010
0000
0100
0000
0010
0000
0001
1000
0001
0000
0010
0000
0100
0000
1000
0000
,
0010
1000
0110
1000
0100
1000
0101
1000
,
0001
0110
0001
1010
0100
1010
0001
1100
,
0020
0000
1000
0000
0100
0000
0001
0000
0100
0000
0001
0000
0100
0000
1000
0030
,
2000
0000
0100
0000
0010
0000
0001
0000
0010
0000
0100
0000
0001
0000
0010
3000
,
0001
0010
0101
0000
1000
0100
1010
0000
,
0100
0000
0000
0001
0110
0000
1000
0000
0010
0000
0100
0000
1010
0000
0001
0000
,
1000
0100
1001
0000
0001
0010
0101
1000
,
0010
0010
1010
0000
0001
0100
0101
0000
,
0001
1010
0001
0100
1000
0101
1000
0100
,
0010
0101
0010
1100
0001
1010
0100
1010
,
0101
0000
0000
1010
0000
0000
0101
0000
0011
0000
0000
0000
1001
0000
0000
0000
,
1000
0100
1000
0010
0001
1100
0010
0001
,
2000
0000
0100
0000
0001
0000
0010
0000
0100
0000
0010
0000
0001
0000
0010
3000
,
0002
0000
0010
0000
1000
0000
0100
0000
0010
0000
0100
0000
0010
0000
1000
0003
,
0020
0000
1000
0000
0100
0000
1000
0000
0001
0000
0100
0000
1000
0000
0001
0030
,
0200
0000
0001
0000
0010
0000
1000
0000
0010
0000
1000
0000
0010
0000
0001
0300
,
0002
0000
0010
0000
1000
0000
0010
0000
0100
0000
1000
0000
0010
0000
0100
0003
,
0020
0000
1000
0000
0001
0000
1000
0000
0100
0000
1000
0000
0001
0000
1000
0030
,
0200
0000
0001
0000
1000
0000
0001
0000
0010
0000
0001
0000
1000
0000
0001
0300
,
2000
0000
0100
0000
0001
0000
0100
0000
0010
0000
0100
0000
0001
0000
0100
3000
,
0002
0000
0010
0000
1000
0000
0010
0000
0100
0000
0010
0000
1000
0000
0010
0003
,
2000
0000
0010
0000
0001
0000
0010
0000
0100
0000
0001
0000
0010
0000
0001
3000
,
0020
0000
1000
0000
0100
0000
1000
0000
0001
0000
1000
0000
0100
0000
1000
0030
,
0200
0000
1000
0000
0010
0000
1000
0000
0001
0000
1000
0000
0010
0000
1000
0300
,
0002
0000
0010
0000
1000
0000
0010
0000
0100
0000
1000
0000
0010
0000
0100
0003
,
0020
0000
1000
0000
0001
0000
1000
0000
0100
0000
1000
0000
0001
0000
1000
0030
,
0200
0000
0001
0000
1000
0000
0001
0000
0010
0000
0001
0000
1000
0000
0001
0300
,
2000
0000
0010
0000
0001
0000
0100
0000
0010
0000
0100
0000
0001
0000
0100
3000
,
0001
0010
0100
1000
0001
1000
0100
0010
,
0001
0010
0100
1000
0001
1000
0100
0010
,
0001
1000
0001
1000
0100
0010
0100
1000
,
0001
0000
0000
0000
;
